<?xml version="1.0" standalone="no"?> <!DOCTYPE svg PUBLIC "-//W3C//DTD SVG 1.0//EN" "http://www.w3.org/TR/2001/REC-SVG-20010904/DTD/svg10.dtd" > <svg xmlns="http://www.w3.org/2000/svg" width="100%" height="100%">
<defs >
<font horiz-adv-x="878" ><font-face
    font-family="OpenGost Type B"
    units-per-em="1700"
    panose-1="2 0 5 3 0 0 0 0 0 0"
    ascent="1400"
    descent="-300"
    alphabetic="0" />
<missing-glyph horiz-adv-x="618" d="M56 0V1133H506V0H56ZM112 56H450V1077H112V56Z" />
<glyph unicode=" " glyph-name="space" horiz-adv-x="600" />
<glyph unicode="!" glyph-name="exclam" horiz-adv-x="300" d="M129 1000T150 1000T185 986T200 950V300Q200 279 186 265T150 250T115 264T100 300V950Q100 971 114 985ZM100 29T100 50T114 85T150 100T185 86T200 50T186 15T150 0T115 14Z" />
<glyph unicode="&quot;" glyph-name="quotedbl" horiz-adv-x="450" d="M350 1000Q371 1000 385 986T400 950Q400 942 399 938L349 738Q345 722 331 711T300 700Q279 700 265 714T250 750Q250 758 251 762L301 962Q305 978 319 989T350 1000ZM150 1000Q171 1000
185 986T200 950Q200 942 199 938L149 738Q145 722 131 711T100 700Q79 700 65 714T50 750Q50 758 51 762L101 962Q105 978 119 989T150 1000Z" />
<glyph unicode="#" glyph-name="numbersign" horiz-adv-x="900" d="M279 1000T300 1000T335 986T350 950V700H550V950Q550 971 564 985T600 1000T635 986T650 950V700H750Q771 700 785 686T800 650T786 615T750 600H650V400H750Q771 400 785 386T800 350T786 315T750
300H650V50Q650 29 636 15T600 0T565 14T550 50V300H350V50Q350 29 336 15T300 0T265 14T250 50V300H150Q129 300 115 314T100 350T114 385T150 400H250V600H150Q129 600 115 614T100 650T114 685T150 700H250V950Q250 971 264 985ZM350 600V400H550V600H350Z"
/>
<glyph unicode="$" glyph-name="dollar" horiz-adv-x="800" d="M379 1100T400 1100T435 1086T450 1050V999Q558 994 672 945Q700 933 700 900Q700 879 686 865T650 850Q640 850 628 855Q533 894 450 899V526L600 422Q639 395 669 342T700 220Q700 185 688 152T648
88T570 34T450 4V-50Q450 -71 436 -85T400 -100T365 -86T350 -50V1Q242 6 128 55Q100 67 100 100Q100 121 114 135T150 150Q160 150 172 145Q267 106 350 101V473L200 577Q161 604 131 657T100 780Q100 815 112 848T152 912T230 966T350 996V1050Q350 1071 364
1085ZM350 896Q277 886 239 856T200 780Q200 740 219 706T267 653L350 595V896ZM450 404V104Q523 114 561 144T600 220Q600 300 533 346L450 404Z" />
<glyph unicode="%" glyph-name="percent" horiz-adv-x="1500" d="M232 1000T325 1000T484 934T550 775T484 616T325 550T166 616T100 775T166 934ZM377 900T325 900T237 864T200 775T236 687T325 650T413 686T450 775T414 863ZM1050 1000Q1071 1000 1085 986T1100
950Q1100 935 1092 922L492 22Q477 0 450 0Q429 0 415 14T400 50Q400 65 408 78L1008 978Q1023 1000 1050 1000ZM1082 450T1175 450T1334 384T1400 225T1334 66T1175 0T1016 66T950 225T1016 384ZM1227 350T1175 350T1087 314T1050 225T1086 137T1175 100T1263
136T1300 225T1264 313Z" />
<glyph unicode="&amp;" glyph-name="ampersand" horiz-adv-x="900" d="M318 1030T400 1030T541 971T600 830Q600 745 540 687L442 591L660 270L712 332Q727 350 750 350Q771 350 785 336T800 300Q800 283 788 268L719 184L791 78Q800 64 800 50Q800 29 786 15T750
0Q724 0 709 22L652 104L631 78Q589 28 529 -1T400 -30Q276 -30 188 58T100 270Q100 397 190 484L312 604L235 717Q200 768 200 830Q200 912 259 971ZM441 930T400 930T330 901T300 830Q300 799 317 774L385 675L470 759Q500 787 500 830Q500 871 471 900ZM369
520L260 413Q200 355 200 270Q200 188 259 129T400 70Q493 70 554 142L594 190L369 520Z" />
<glyph unicode="&apos;" glyph-name="quotesingle" horiz-adv-x="250" d="M150 1000Q171 1000 185 986T200 950Q200 942 199 938L149 738Q145 722 131 711T100 700Q79 700 65 714T50 750Q50 758 51 762L101 962Q105 978 119 989T150 1000Z" />
<glyph unicode="(" glyph-name="parenleft" horiz-adv-x="400" d="M250 1100Q271 1100 285 1086T300 1050Q300 1040 296 1031Q200 789 200 500T296 -31Q300 -40 300 -50Q300 -71 286 -85T250 -100Q216 -100 204 -68Q100 193 100 500T204 1068Q216 1100 250 1100Z" />
<glyph unicode=")" glyph-name="parenright" horiz-adv-x="400" d="M150 1100Q184 1100 196 1068Q300 807 300 500T196 -68Q184 -100 150 -100Q129 -100 115 -86T100 -50Q100 -40 104 -31Q200 211 200 500T104 1031Q100 1040 100 1050Q100 1071 114 1085T150 1100Z" />
<glyph unicode="*" glyph-name="asterisk" horiz-adv-x="500" d="M150 1000Q177 1000 192 978L250 890L308 978Q323 1000 350 1000Q371 1000 385 986T400 950Q400 935 392 922L343 850H400Q421 850 435 836T450 800T436 765T400 750H343L392 678Q400 665 400 650Q400
629 386 615T350 600Q323 600 308 622L250 710L192 622Q177 600 150 600Q129 600 115 614T100 650Q100 665 108 678L157 750H100Q79 750 65 764T50 800T64 835T100 850H157L108 922Q100 935 100 950Q100 971 114 985T150 1000Z" />
<glyph unicode="+" glyph-name="plus" horiz-adv-x="700" d="M329 600T350 600T385 586T400 550V400H550Q571 400 585 386T600 350T586 315T550 300H400V150Q400 129 386 115T350 100T315 114T300 150V300H150Q129 300 115 314T100 350T114 385T150 400H300V550Q300
571 314 585Z" />
<glyph unicode="," glyph-name="comma" horiz-adv-x="300" d="M150 100Q171 100 185 86T200 50Q200 42 199 38L149 -162Q145 -178 131 -189T100 -200Q79 -200 65 -186T50 -150Q50 -142 51 -138L101 62Q105 78 119 89T150 100Z" />
<glyph unicode="-" glyph-name="hyphen" horiz-adv-x="700" d="M150 400H550Q571 400 585 386T600 350T586 315T550 300H150Q129 300 115 314T100 350T114 385T150 400Z" />
<glyph unicode="." glyph-name="period" horiz-adv-x="300" d="M200 71T200 50T186 15T150 0T115 14T100 50T114 85T150 100T185 86Z" />
<glyph unicode="/" glyph-name="slash" horiz-adv-x="800" d="M650 1300Q671 1300 685 1286T700 1250Q700 1240 697 1233L197 -167Q185 -200 150 -200Q129 -200 115 -186T100 -150Q100 -140 103 -133L603 1267Q615 1300 650 1300Z" />
<glyph unicode="0" glyph-name="zero" horiz-adv-x="700" d="M246 1030T350 1030T527 957T600 780V220Q600 116 527 43T350 -30T173 43T100 220V780Q100 884 173 957ZM412 930T350 930T244 886T200 780V220Q200 158 244 114T350 70T456 114T500 220V780Q500 842 456 886Z" />
<glyph unicode="1" glyph-name="one" horiz-adv-x="450" d="M300 1000Q321 1000 335 986T350 950V50Q350 29 336 15T300 0T265 14T250 50V829L135 715Q120 700 100 700Q79 700 65 714T50 750Q50 770 65 785L265 985Q280 1000 300 1000Z" />
<glyph unicode="2" glyph-name="two" horiz-adv-x="700" d="M350 1030Q454 1030 527 957T600 780Q600 712 565 653L238 100H550Q571 100 585 86T600 50T586 15T550 0H150Q129 0 115 14T100 50Q100 64 107 76L479 704Q500 740 500 780Q500 842 456 886T350 930Q289
930 253 904Q222 881 195 828Q181 800 150 800Q129 800 115 814T100 850Q100 860 105 872Q144 950 195 986Q257 1030 350 1030Z" />
<glyph unicode="3" glyph-name="three" horiz-adv-x="700" d="M150 1000H350Q454 1000 527 927T600 750Q600 690 574 638T500 550Q547 515 573 463T600 350V250Q600 146 527 73T350 0H150Q129 0 115 14T100 50T114 85T150 100H350Q412 100 456 144T500 250V350Q500
412 456 456T350 500H250Q229 500 215 514T200 550T214 585T250 600H350Q412 600 456 644T500 750T456 856T350 900H150Q129 900 115 914T100 950T114 985T150 1000Z" />
<glyph unicode="4" glyph-name="four" horiz-adv-x="700" d="M320 1000Q341 1000 355 986T370 950Q370 944 368 936L186 300H420V450Q420 471 434 485T470 500T505 486T520 450V300H620Q641 300 655 286T670 250T656 215T620 200H520V50Q520 29 506 15T470 0T435
14T420 50V200H120Q99 200 85 214T70 250Q70 256 72 264L272 964Q277 980 290 990T320 1000Z" />
<glyph unicode="5" glyph-name="five" horiz-adv-x="700" d="M150 1000H550Q571 1000 585 986T600 950T586 915T550 900H200V600H350Q454 600 527 527T600 350V250Q600 146 527 73T350 0H150Q129 0 115 14T100 50T114 85T150 100H350Q412 100 456 144T500 250V350Q500
412 456 456T350 500H150Q129 500 115 514T100 550V950Q100 971 114 985T150 1000Z" />
<glyph unicode="6" glyph-name="six" horiz-adv-x="700" d="M454 -30T350 -30T173 43T100 220V500Q100 667 188 803T432 997Q441 1000 450 1000Q471 1000 485 986T500 950Q500 915 466 903Q363 866 297 786T210 600H350Q454 600 527 527T600 350V220Q600 116 527
43ZM288 70T350 70T456 114T500 220V350Q500 412 456 456T350 500H200V220Q200 158 244 114Z" />
<glyph unicode="7" glyph-name="seven" horiz-adv-x="700" d="M150 1000H550Q571 1000 585 986T600 950Q600 945 598 937L348 37Q343 21 330 11T300 0Q279 0 265 14T250 50Q250 55 252 63L484 900H200V850Q200 829 186 815T150 800T115 814T100 850V950Q100 971
114 985T150 1000Z" />
<glyph unicode="8" glyph-name="eight" horiz-adv-x="700" d="M247 1030T350 1030T526 953T600 765Q600 702 575 648T506 557Q531 541 550 521Q630 438 630 285T550 49Q474 -30 350 -30T150 49Q70 132 70 285T150 521Q169 541 194 557Q150 594 125 648T100 765Q100
876 173 953ZM414 930T350 930T243 885T200 765T243 646T350 600T457 645T500 765T457 884ZM432 500T350 500T222 452Q170 398 170 285T222 118Q268 70 350 70T478 118Q530 172 530 285T478 452Q432 500 350 500Z" />
<glyph unicode="9" glyph-name="nine" horiz-adv-x="700" d="M246 1030T350 1030T527 957T600 780V500Q600 333 512 197T268 3Q259 0 250 0Q229 0 215 14T200 50Q200 85 234 97Q337 134 403 214T490 400H350Q246 400 173 473T100 650V780Q100 884 173 957ZM412
930T350 930T244 886T200 780V650Q200 588 244 544T350 500H500V780Q500 842 456 886Z" />
<glyph unicode=":" glyph-name="colon" horiz-adv-x="300" d="M200 471T200 450T186 415T150 400T115 414T100 450T114 485T150 500T185 486ZM200 71T200 50T186 15T150 0T115 14T100 50T114 85T150 100T185 86Z" />
<glyph unicode=";" glyph-name="semicolon" horiz-adv-x="300" d="M150 100Q171 100 185 86T200 50Q200 42 199 38L149 -162Q145 -178 131 -189T100 -200Q79 -200 65 -186T50 -150Q50 -142 51 -138L101 62Q105 78 119 89T150 100ZM200 471T200 450T186 415T150
400T115 414T100 450T114 485T150 500T185 486Z" />
<glyph unicode="&lt;" glyph-name="less" horiz-adv-x="700" d="M550 600Q571 600 585 586T600 550Q600 519 572 505L262 350L572 195Q600 181 600 150Q600 129 586 115T550 100Q540 100 528 105L128 305Q100 319 100 350T128 395L528 595Q540 600 550 600Z" />
<glyph unicode="=" glyph-name="equal" horiz-adv-x="700" d="M150 550H550Q571 550 585 536T600 500T586 465T550 450H150Q129 450 115 464T100 500T114 535T150 550ZM150 300H550Q571 300 585 286T600 250T586 215T550 200H150Q129 200 115 214T100 250T114
285T150 300Z" />
<glyph unicode="&gt;" glyph-name="greater" horiz-adv-x="700" d="M150 600Q160 600 172 595L572 395Q600 381 600 350T572 305L172 105Q160 100 150 100Q129 100 115 114T100 150Q100 181 128 195L438 350L128 505Q100 519 100 550Q100 571 114 585T150 600Z" />
<glyph unicode="?" glyph-name="question" horiz-adv-x="700" d="M329 100T350 100T385 86T400 50T386 15T350 0T315 14T300 50T314 85ZM350 1030Q454 1030 527 957T600 780Q600 662 509 587L436 527Q400 498 400 450V300Q400 279 386 265T350 250T315 264T300
300V450Q300 543 373 604L446 664Q500 708 500 780Q500 842 456 886T350 930Q284 930 247 922T181 891Q167 880 150 880Q129 880 115 894T100 930Q100 953 119 969Q163 1004 217 1017T350 1030Z" />
<glyph unicode="@" glyph-name="at" horiz-adv-x="1300" d="M538 1030T650 1030T864 987T1039 870T1156 694T1200 480V250Q1200 146 1127 73T950 0Q877 0 832 58Q757 -20 650 -20Q546 -20 473 53T400 230V500Q400 582 459 641T600 700H850Q871 700 885 686T900
650V150Q900 129 914 115T950 100Q1012 100 1056 144T1100 250V480Q1100 602 1040 706T876 870T650 930T424 870T260 706T200 480V250Q200 128 260 24T424 -140T650 -200Q671 -200 685 -214T700 -250T686 -285T650 -300Q538 -300 436 -257T261 -140T144 36T100
250V480Q100 592 143 694T260 869T436 986ZM600 600Q559 600 530 571T500 500V230Q500 168 544 124T650 80T756 124T800 230V600H600Z" />
<glyph unicode="A" glyph-name="A" horiz-adv-x="800" d="M100 0Q78 0 64 14T50 49Q50 58 53 65L352 965Q364 1000 400 1000Q435 1000 449 960L747 65Q750 58 750 49Q750 29 736 15T700 0Q684 0 671 9T652 34L580 250H220L148 34Q143 19 130 10T100 0ZM253 350H547L400
792L253 350Z" />
<glyph unicode="B" glyph-name="B" horiz-adv-x="780" d="M150 1000H400Q504 1000 577 927T650 750Q650 631 557 556Q623 516 661 448T700 300Q700 176 612 88T400 0H150Q129 0 115 14T100 50V950Q100 971 114 985T150 1000ZM200 900V600H400Q462 600 506 644T550
750T506 856T400 900H200ZM200 500V100H400Q482 100 541 159T600 300T541 441T400 500H200Z" />
<glyph unicode="C" glyph-name="C" horiz-adv-x="670" d="M390 1000H540Q561 1000 575 986T590 950T576 915T540 900H390Q308 900 249 841T190 700V300Q190 218 249 159T390 100H540Q561 100 575 86T590 50T576 15T540 0H390Q266 0 178 88T90 300V700Q90 824 178
912T390 1000Z" />
<glyph unicode="D" glyph-name="D" horiz-adv-x="790" d="M150 1000H400Q524 1000 612 912T700 700V300Q700 176 612 88T400 0H150Q129 0 115 14T100 50V950Q100 971 114 985T150 1000ZM200 900V100H400Q482 100 541 159T600 300V700Q600 782 541 841T400 900H200Z" />
<glyph unicode="E" glyph-name="E" horiz-adv-x="680" d="M150 1000H550Q571 1000 585 986T600 950T586 915T550 900H200V600H450Q471 600 485 586T500 550T486 515T450 500H200V100H550Q571 100 585 86T600 50T586 15T550 0H150Q129 0 115 14T100 50V950Q100
971 114 985T150 1000Z" />
<glyph unicode="F" glyph-name="F" horiz-adv-x="680" d="M150 1000H550Q571 1000 585 986T600 950T586 915T550 900H200V600H550Q571 600 585 586T600 550T586 515T550 500H200V50Q200 29 186 15T150 0T115 14T100 50V950Q100 971 114 985T150 1000Z" />
<glyph unicode="G" glyph-name="G" horiz-adv-x="790" d="M390 1000H640Q661 1000 675 986T690 950T676 915T640 900H390Q308 900 249 841T190 700V300Q190 218 249 159T390 100H590V500H540Q519 500 505 514T490 550T504 585T540 600H640Q661 600 675 586T690
550V50Q690 29 676 15T640 0H390Q266 0 178 88T90 300V700Q90 824 178 912T390 1000Z" />
<glyph unicode="H" glyph-name="H" horiz-adv-x="800" d="M129 1000T150 1000T185 986T200 950V600H600V950Q600 971 614 985T650 1000T685 986T700 950V50Q700 29 686 15T650 0T615 14T600 50V500H200V50Q200 29 186 15T150 0T115 14T100 50V950Q100 971 114 985Z" />
<glyph unicode="I" glyph-name="I" horiz-adv-x="300" d="M129 1000T150 1000T185 986T200 950V50Q200 29 186 15T150 0T115 14T100 50V950Q100 971 114 985Z" />
<glyph unicode="J" glyph-name="J" horiz-adv-x="540" d="M379 1000T400 1000T435 986T450 950V300Q450 176 362 88T150 0H100Q79 0 65 14T50 50T64 85T100 100H150Q232 100 291 159T350 300V950Q350 971 364 985Z" />
<glyph unicode="K" glyph-name="K" horiz-adv-x="780" d="M129 1000T150 1000T185 986T200 950V530L613 984Q628 1000 650 1000Q670 1000 684 987Q700 972 700 950Q700 930 687 916L393 594L693 75Q700 64 700 50Q700 21 675 7Q664 0 650 0Q621 0 607 25L322 516L200
382V50Q200 29 186 15T150 0T115 14T100 50V950Q100 971 114 985Z" />
<glyph unicode="L" glyph-name="L" horiz-adv-x="640" d="M140 0Q119 0 105 14T90 50V950Q90 971 104 985T140 1000T175 986T190 950V100H540Q561 100 575 86T590 50T576 15T540 0H140Z" />
<glyph unicode="M" glyph-name="M" horiz-adv-x="900" d="M800 947V50Q800 29 786 15T750 0T715 14T700 50V769L495 427Q481 399 450 399Q422 399 405 428L200 769V50Q200 29 186 15T150 0T115 14T100 50V947Q100 968 113 984T148 1000Q177 1000 195 971L450 547L705
971Q723 1000 752 1000Q773 1000 786 984T800 949V947Z" />
<glyph unicode="N" glyph-name="N" horiz-adv-x="800" d="M150 1000Q176 1000 194 973L600 243V950Q600 971 614 985T650 1000T685 986T700 950V50Q700 29 686 15T650 0Q620 0 604 30L200 757V50Q200 29 186 15T150 0T115 14T100 50V950Q100 971 114 985T150 1000Z" />
<glyph unicode="O" glyph-name="O" horiz-adv-x="780" d="M266 1030T390 1030T602 942T690 730V270Q690 146 602 58T390 -30T178 58T90 270V730Q90 854 178 942ZM472 930T390 930T249 871T190 730V270Q190 188 249 129T390 70T531 129T590 270V730Q590 812 531 871Z" />
<glyph unicode="P" glyph-name="P" horiz-adv-x="780" d="M150 1000H400Q524 1000 612 912T700 700T612 488T400 400H200V50Q200 29 186 15T150 0T115 14T100 50V950Q100 971 114 985T150 1000ZM200 900V500H400Q482 500 541 559T600 700T541 841T400 900H200Z" />
<glyph unicode="Q" glyph-name="Q" horiz-adv-x="790" d="M266 1030T390 1030T602 942T690 730V270Q690 213 668 158L768 92Q790 77 790 50Q790 29 776 15T740 0Q725 0 712 8L616 73Q526 -30 390 -30Q266 -30 178 58T90 270V730Q90 854 178 942ZM472 930T390 930T249
871T190 730V270Q190 188 249 129T390 70Q473 70 532 129L412 208Q390 223 390 250Q390 271 404 285T440 300Q455 300 468 292L582 215Q590 242 590 270V730Q590 812 531 871Z" />
<glyph unicode="R" glyph-name="R" horiz-adv-x="780" d="M150 1000H400Q524 1000 612 912T700 700Q700 598 639 519T483 412L692 76Q700 63 700 50Q700 29 686 15T650 0Q623 0 608 24L372 400H200V50Q200 29 186 15T150 0T115 14T100 50V950Q100 971 114 985T150
1000ZM200 900V500H400Q482 500 541 559T600 700T541 841T400 900H200Z" />
<glyph unicode="S" glyph-name="S" horiz-adv-x="760" d="M380 1030Q462 1030 536 1005T660 940Q680 925 680 900Q680 879 666 865T630 850Q616 850 606 856Q544 894 493 912T380 930Q284 930 232 888T180 780Q180 737 202 701T258 642L558 442Q604 411 642 351T680
220Q680 175 663 132T611 52T516 -7T380 -30Q298 -30 224 -5T100 60Q80 75 80 100Q80 121 94 135T130 150Q144 150 154 144Q216 106 267 88T380 70Q476 70 528 112T580 220Q580 263 558 299T502 358L202 558Q156 589 118 649T80 780Q80 825 97 868T149 948T244
1007T380 1030Z" />
<glyph unicode="T" glyph-name="T" horiz-adv-x="700" d="M50 929T50 950T64 985T100 1000H350H600Q621 1000 635 986T650 950T636 915T600 900H400V50Q400 29 386 15T350 0T315 14T300 50V900H100Q79 900 65 914Z" />
<glyph unicode="U" glyph-name="U" horiz-adv-x="800" d="M129 1000T150 1000T185 986T200 950V270Q200 188 259 129T400 70T541 129T600 270V950Q600 971 614 985T650 1000T685 986T700 950V270Q700 146 612 58T400 -30T188 58T100 270V950Q100 971 114 985Z" />
<glyph unicode="V" glyph-name="V" horiz-adv-x="800" d="M100 1000Q116 1000 129 991T148 966L400 208L652 966Q657 981 670 990T700 1000Q722 1000 736 986T750 951Q750 942 747 935L449 40Q435 0 400 0Q364 0 352 35L53 935Q50 942 50 951Q50 971 64 985T100 1000Z" />
<glyph unicode="W" glyph-name="W" horiz-adv-x="1000" d="M549 666L690 237L852 961Q856 978 869 989T900 1000Q922 1000 936 986T950 951Q950 944 949 940L751 41Q741 0 700 0Q665 0 654 34L500 495L346 34Q335 0 300 0Q259 0 249 41L51 940Q50 944 50 951Q50
971 64 985T100 1000Q117 1000 130 989T148 961L310 237L451 666Q462 700 500 700T549 666Z" />
<glyph unicode="X" glyph-name="X" horiz-adv-x="820" d="M738 992Q760 976 760 950Q760 934 752 922L470 499L751 78Q760 64 760 50Q760 23 737 8Q725 0 709 0Q683 0 668 22L410 409L152 22Q137 0 111 0Q95 0 83 8Q60 23 60 50Q60 64 69 78L350 499L68 922Q60
934 60 950Q60 976 82 992Q94 1000 110 1000Q137 1000 152 978L410 590L668 978Q683 1000 710 1000Q726 1000 738 992Z" />
<glyph unicode="Y" glyph-name="Y" horiz-adv-x="800" d="M100 1000Q125 1000 140 980L400 633L660 980Q675 1000 700 1000Q721 1000 735 986T750 950Q750 933 740 920L450 533V50Q450 29 436 15T400 0T365 14T350 50V533L60 920Q50 933 50 950Q50 971 64 985T100 1000Z" />
<glyph unicode="Z" glyph-name="Z" horiz-adv-x="760" d="M673 924L215 100H630Q651 100 665 86T680 50T666 15T630 0H130Q109 0 95 14T80 50Q80 59 91 81L545 900H130Q109 900 95 914T80 950T94 985T130 1000H630Q651 1000 665 986T680 950Q680 938 673 924Z" />
<glyph unicode="[" glyph-name="bracketleft" horiz-adv-x="400" d="M200 1000V0H250Q271 0 285 -14T300 -50T286 -85T250 -100H150Q129 -100 115 -86T100 -50V1050Q100 1071 114 1085T150 1100H250Q271 1100 285 1086T300 1050T286 1015T250 1000H200Z" />
<glyph unicode="\" glyph-name="backslash" horiz-adv-x="800" d="M150 1300Q185 1300 197 1267L697 -133Q700 -140 700 -150Q700 -171 686 -185T650 -200Q615 -200 603 -167L103 1233Q100 1240 100 1250Q100 1271 114 1285T150 1300Z" />
<glyph unicode="]" glyph-name="bracketright" horiz-adv-x="400" d="M200 0V1000H150Q129 1000 115 1014T100 1050T114 1085T150 1100H250Q271 1100 285 1086T300 1050V-50Q300 -71 286 -85T250 -100H150Q129 -100 115 -86T100 -50T114 -15T150 0H200Z" />
<glyph unicode="^" glyph-name="asciicircum" horiz-adv-x="500" d="M230 1150T250 1150T285 1135L435 985Q450 970 450 950Q450 929 436 915T400 900Q380 900 365 915L250 1029L135 915Q120 900 100 900Q79 900 65 914T50 950Q50 970 65 985L215 1135Q230 1150
250 1150Z" />
<glyph unicode="_" glyph-name="underscore" horiz-adv-x="900" d="M100 50H800Q821 50 835 36T850 0T836 -35T800 -50H100Q79 -50 65 -36T50 0T64 35T100 50Z" />
<glyph unicode="`" glyph-name="grave" horiz-adv-x="250" d="M100 1000Q131 1000 145 972L195 872Q200 860 200 850Q200 829 186 815T150 800Q119 800 105 828L55 928Q50 940 50 950Q50 971 64 985T100 1000Z" />
<glyph unicode="a" glyph-name="a" horiz-adv-x="720" d="M290 700H540Q561 700 575 686T590 650V150Q590 129 604 115T640 100T675 86T690 50T676 15T640 0Q567 0 522 58Q447 -20 340 -20Q236 -20 163 53T90 230V500Q90 582 149 641T290 700ZM290 600Q249 600
220 571T190 500V230Q190 168 234 124T340 80T446 124T490 230V600H290Z" />
<glyph unicode="b" glyph-name="b" horiz-adv-x="690" d="M150 0Q127 0 114 14T100 50V950Q100 971 114 985T150 1000T185 986T200 950V700H400Q483 700 541 642T600 500V200Q600 117 542 59T400 0H150ZM200 100H400Q442 100 471 129T500 200V500Q500 542 471
571T400 600H200V100Z" />
<glyph unicode="c" glyph-name="c" horiz-adv-x="570" d="M190 200Q190 158 219 129T290 100H440Q461 100 475 86T490 50T476 15T440 0H290Q207 0 149 58T90 200V500Q90 583 148 641T290 700H440Q461 700 475 686T490 650T476 615T440 600H290Q248 600 219 571T190
500V200Z" />
<glyph unicode="d" glyph-name="d" horiz-adv-x="690" d="M540 0H290Q207 0 149 58T90 200V500Q90 583 148 641T290 700H490V950Q490 971 504 985T540 1000T575 986T590 950V50Q590 28 577 14T540 0ZM490 100V600H290Q248 600 219 571T190 500V200Q190 158 219
129T290 100H490Z" />
<glyph unicode="e" glyph-name="e" horiz-adv-x="680" d="M236 720T340 720T517 647T590 470V350Q590 329 576 315T540 300H190V200Q190 159 219 130T290 100H540Q561 100 575 86T590 50T576 15T540 0H290Q208 0 149 59T90 200V470Q90 574 163 647ZM402 620T340
620T234 576T190 470V400H490V470Q490 532 446 576Z" />
<glyph unicode="f" glyph-name="f" horiz-adv-x="460" d="M80 700H130V800Q130 883 188 941T330 1000H380Q401 1000 415 986T430 950T416 915T380 900H331Q289 900 260 871T230 800V700H380Q401 700 415 686T430 650T416 615T380 600H230V50Q230 29 216 15T180
0T145 14T130 50V600H80Q59 600 45 614T30 650T44 685T80 700Z" />
<glyph unicode="g" glyph-name="g" horiz-adv-x="690" d="M590 -100Q590 -183 532 -241T390 -300H190Q169 -300 155 -286T140 -250T154 -215T190 -200H390Q432 -200 461 -171T490 -100V0H290Q207 0 149 58T90 200V500Q90 583 148 641T290 700H540Q563 700 576
686T590 650V-100ZM490 600H290Q248 600 219 571T190 500V200Q190 158 219 129T290 100H490V600Z" />
<glyph unicode="h" glyph-name="h" horiz-adv-x="700" d="M200 700H400Q482 700 541 641T600 500V50Q600 29 586 15T550 0T515 14T500 50V500Q500 541 471 570T400 600H200V50Q200 29 186 15T150 0T115 14T100 50V950Q100 971 114 985T150 1000T185 986T200 950V700Z" />
<glyph unicode="i" glyph-name="i" horiz-adv-x="300" d="M129 700T150 700T185 686T200 650V50Q200 29 186 15T150 0T115 14T100 50V650Q100 671 114 685ZM100 929T100 950T114 985T150 1000T185 986T200 950T186 915T150 900T115 914Z" />
<glyph unicode="j" glyph-name="j" horiz-adv-x="300" d="M200 -100Q200 -183 142 -241T0 -300H-50Q-71 -300 -85 -286T-100 -250T-86 -215T-50 -200H-1Q41 -200 70 -171T100 -100V650Q100 671 114 685T150 700T185 686T200 650V-100ZM100 929T100 950T114 985T150
1000T185 986T200 950T186 915T150 900T115 914Z" />
<glyph unicode="k" glyph-name="k" horiz-adv-x="680" d="M600 50Q600 30 586 15T550 0Q519 0 505 28L336 366L200 229V50Q200 29 186 15T150 0T115 14T100 50V950Q100 971 114 985T150 1000T185 986T200 950V371L515 685Q530 700 550 700T585 685T600 650T585
615L411 440L595 72Q600 63 600 50Z" />
<glyph unicode="l" glyph-name="l" horiz-adv-x="390" d="M290 100Q311 100 325 86T340 50T326 15T290 0Q207 0 149 58T90 200V950Q90 971 104 985T140 1000T175 986T190 950V200Q190 158 219 129T290 100Z" />
<glyph unicode="m" glyph-name="m" horiz-adv-x="900" d="M700 500Q700 541 671 570T600 600H500V50Q500 29 486 15T450 0T415 14T400 50V600H200V50Q200 29 186 15T150 0T115 14T100 50V650Q100 671 114 685T150 700H600Q682 700 741 641T800 500V50Q800 29 786
15T750 0T715 14T700 50V500Z" />
<glyph unicode="n" glyph-name="n" horiz-adv-x="700" d="M500 500Q500 541 471 570T400 600H200V50Q200 29 186 15T150 0T115 14T100 50V650Q100 671 114 685T150 700H400Q482 700 541 641T600 500V50Q600 29 586 15T550 0T515 14T500 50V500Z" />
<glyph unicode="o" glyph-name="o" horiz-adv-x="680" d="M236 720T340 720T517 647T590 470V230Q590 126 517 53T340 -20T163 53T90 230V470Q90 574 163 647ZM402 620T340 620T234 576T190 470V230Q190 168 234 124T340 80T446 124T490 230V470Q490 532 446 576Z" />
<glyph unicode="p" glyph-name="p" horiz-adv-x="690" d="M150 700H400Q483 700 541 642T600 500V200Q600 117 542 59T400 0H200V-250Q200 -271 186 -285T150 -300T115 -286T100 -250V650Q100 672 113 686T150 700ZM200 600V100H400Q442 100 471 129T500 200V500Q500
542 471 571T400 600H200Z" />
<glyph unicode="q" glyph-name="q" horiz-adv-x="690" d="M540 700Q563 700 576 686T590 650V-250Q590 -271 576 -285T540 -300T505 -286T490 -250V0H290Q207 0 149 58T90 200V500Q90 583 148 641T290 700H540ZM490 600H290Q248 600 219 571T190 500V200Q190 158
219 129T290 100H490V600Z" />
<glyph unicode="r" glyph-name="r" horiz-adv-x="550" d="M150 700H350Q412 700 456 656T500 550Q500 529 486 515T450 500T415 514T400 550T386 585T350 600H200V50Q200 29 186 15T150 0T115 14T100 50V650Q100 671 114 685T150 700Z" />
<glyph unicode="s" glyph-name="s" horiz-adv-x="680" d="M340 720Q491 720 554 657Q570 641 570 620T556 585T520 570T484 585Q449 620 340 620Q261 620 221 600Q202 591 196 582T190 550Q190 526 196 517T227 492L497 322Q538 296 564 257T590 170Q590 78 528
29T340 -20Q280 -20 215 2T106 63Q90 79 90 100T104 135T140 150Q154 150 166 143Q253 80 340 80Q490 80 490 170Q490 195 480 208T443 238L173 408Q137 430 114 467T90 550Q90 595 114 632T176 689Q234 720 340 720Z" />
<glyph unicode="t" glyph-name="t" horiz-adv-x="460" d="M159 1000T180 1000T215 986T230 950V700H380Q401 700 415 686T430 650T416 615T380 600H230V50Q230 29 216 15T180 0T145 14T130 50V600H80Q59 600 45 614T30 650T44 685T80 700H130V950Q130 971 144 985Z" />
<glyph unicode="u" glyph-name="u" horiz-adv-x="700" d="M200 200Q200 159 229 130T300 100H500V650Q500 671 514 685T550 700T585 686T600 650V50Q600 29 586 15T550 0H300Q218 0 159 59T100 200V650Q100 671 114 685T150 700T185 686T200 650V200Z" />
<glyph unicode="v" glyph-name="v" horiz-adv-x="620" d="M60 650Q60 670 74 685T111 700Q146 700 158 665L310 207L462 665Q474 700 509 700Q531 700 545 685T560 650Q560 642 557 634L359 40Q345 0 310 0T261 40L63 634Q60 642 60 650Z" />
<glyph unicode="w" glyph-name="w" horiz-adv-x="820" d="M560 0Q525 0 513 32L410 309L307 32Q295 0 260 0Q243 0 229 10T211 38L61 638Q60 642 60 651Q60 671 74 685T110 700Q127 700 140 690T158 662L269 217L363 467Q377 500 410 500T457 467L551 217L662
662Q666 679 679 689T710 700Q732 700 746 686T760 651Q760 642 759 638L609 38Q605 21 591 11T560 0Z" />
<glyph unicode="x" glyph-name="x" horiz-adv-x="640" d="M70 649Q70 669 85 684T121 700Q146 700 162 678L320 441L477 677Q492 700 519 700Q540 700 555 684T570 649Q570 633 561 621L380 350L561 79Q570 67 570 51Q570 32 555 16T519 0Q492 0 477 23L320 259L162
22Q146 0 121 0Q100 0 85 15T70 51Q70 66 79 78L260 350L79 622Q70 634 70 649Z" />
<glyph unicode="y" glyph-name="y" horiz-adv-x="630" d="M120 700Q155 700 167 666L320 208L473 666Q485 700 520 700Q541 700 555 686T570 650Q570 642 567 634L301 -166Q280 -229 237 -263Q190 -300 120 -300Q99 -300 85 -286T70 -250T84 -215T120 -200Q157
-200 175 -185Q194 -169 206 -134L267 50L73 634Q70 642 70 650Q70 671 84 685T120 700Z" />
<glyph unicode="z" glyph-name="z" horiz-adv-x="650" d="M130 0Q109 0 95 15T80 50Q80 64 89 78L437 600H130Q109 600 95 614T80 650T94 685T130 700H530Q551 700 565 686T580 650Q580 634 571 621L224 100H530Q551 100 565 86T580 50T566 15T530 0H130Z" />
<glyph unicode="{" glyph-name="braceleft" horiz-adv-x="500" d="M350 1100Q371 1100 385 1086T400 1050T386 1015T350 1000T315 986T300 950V600Q300 543 262 500Q300 457 300 400V50Q300 29 314 15T350 0T385 -14T400 -50T386 -85T350 -100Q288 -100 244 -56T200
50V400Q200 421 186 435T150 450T115 464T100 500T114 535T150 550T185 564T200 600V950Q200 1012 244 1056T350 1100Z" />
<glyph unicode="|" glyph-name="bar" horiz-adv-x="300" d="M129 1100T150 1100T185 1086T200 1050V-50Q200 -71 186 -85T150 -100T115 -86T100 -50V1050Q100 1071 114 1085Z" />
<glyph unicode="}" glyph-name="braceright" horiz-adv-x="500" d="M150 1100Q212 1100 256 1056T300 950V600Q300 579 314 565T350 550T385 536T400 500T386 465T350 450T315 436T300 400V50Q300 -12 256 -56T150 -100Q129 -100 115 -86T100 -50T114 -15T150
0T185 14T200 50V400Q200 457 238 500Q200 543 200 600V950Q200 971 186 985T150 1000T115 1014T100 1050T114 1085T150 1100Z" />
<glyph unicode="~" glyph-name="asciitilde" horiz-adv-x="800" d="M182 450T275 450T435 386Q472 350 525 350T615 386Q629 400 650 400T685 386T700 350T684 313Q618 250 525 250T365 314Q328 350 275 350Q223 350 185 315Q168 300 150 300Q129 300 115 314T100
350T116 387Q182 450 275 450Z" />
</font>
</defs>
</svg>
